<?xml version="1.0" standalone="no"?>
<!DOCTYPE svg PUBLIC "-//W3C//DTD SVG 1.1//EN" "http://www.w3.org/Graphics/SVG/1.1/DTD/svg11.dtd" >
<svg xmlns="http://www.w3.org/2000/svg" xmlns:xlink="http://www.w3.org/1999/xlink" version="1.1">
<metadata>
Created by FontForge 20170731 at Wed Jan 26 22:13:54 1927
 By Aleksey,,,
(c)1991 AG Baltia
</metadata>
<defs>
<font id="Optima" horiz-adv-x="1000" >
  <font-face 
    font-family="Optima"
    font-weight="400"
    font-stretch="normal"
    units-per-em="1000"
    panose-1="0 0 0 0 0 0 0 0 0 0"
    ascent="800"
    descent="-200"
    x-height="470"
    cap-height="681"
    bbox="-33 -264 1018 849"
    underline-thickness="38"
    underline-position="-198"
    unicode-range="U+0020-2122"
  />
<missing-glyph horiz-adv-x="736" 
d="M46 0v736h644v-736h-644zM644 46v644h-552v-644h552z" />
    <glyph glyph-name=".notdef" horiz-adv-x="736" 
d="M46 0v736h644v-736h-644zM644 46v644h-552v-644h552z" />
    <glyph glyph-name=".null" horiz-adv-x="0" 
 />
    <glyph glyph-name="nonmarkingreturn" horiz-adv-x="278" 
 />
    <glyph glyph-name="space" unicode=" " horiz-adv-x="278" 
 />
    <glyph glyph-name="exclam" unicode="!" horiz-adv-x="333" 
d="M213 596l-36 -423h-20l-38 423q-1 17 -1 27q0 33 7 48q11 25 41 25q29 0 40 -24q8 -17 8 -49q-1 -20 -1 -27zM106 49q0 24 18 42t43 18q23 0 41 -18t18 -42t-17 -42t-42 -18t-43 17t-18 43z" />
    <glyph glyph-name="quotedbl" unicode="&#x22;" horiz-adv-x="333" 
d="M118 616v-169q1 -6 1 -18q0 -20 -8 -31t-26 -11q-35 0 -35 42q0 11 1 18v169q0 45 6 62.5t28 17.5q21 0 27 -17.5t6 -62.5zM281 616v-169q1 -6 1 -18q0 -20 -8 -31t-26 -11q-35 0 -35 42q0 11 1 18v169q0 45 6 62.5t28 17.5q21 0 27 -17.5t6 -62.5z" />
    <glyph glyph-name="numbersign" unicode="#" horiz-adv-x="556" 
d="M499 272v-56h-109l-31 -216h-58l31 216h-134l-33 -216h-58l33 216h-107v56h116l21 133h-110v56h118l31 203h58l-31 -203h133l30 203h58l-30 -203h97v-56h-105l-20 -133h100zM361 405h-133l-21 -133h134z" />
    <glyph glyph-name="dollar" unicode="$" horiz-adv-x="556" 
d="M302 291v-256q45 11 72.5 46t27.5 87q0 62 -51 96q-35 20 -49 27zM262 401v230q-41 -9 -66.5 -39t-25.5 -73q0 -41 22 -70q19 -25 70 -48zM302 634v-251q117 -51 138 -72q40 -41 40 -105q0 -86 -49.5 -141.5t-128.5 -69.5v-111l-20 3l-20 -3v105q-81 0 -119.5 13
t-67.5 39q6 21 12 44t6 42h11q33 -50 63 -71q39 -27 95 -27v280q-76 28 -108 53q-62 48 -62 126q0 79 49 127q45 44 121 56v77l20 -3l20 3v-74q50 0 87 -11t64 -35q-16 -35 -26 -79h-11q-19 40 -44 61q-30 24 -70 24z" />
    <glyph glyph-name="percent" unicode="%" horiz-adv-x="889" 
d="M642 696l-372 -729q-16 2 -24 2t-22 -2l372 729q7 -2 22 -2q16 0 24 2zM365 510q0 -68 -47 -119t-114 -51q-72 0 -115.5 46.5t-43.5 118.5t48 119t119 47q69 0 111 -46t42 -115zM837 157q0 -46 -22 -85t-62 -63q-14 -8 -36.5 -14t-40.5 -6q-71 0 -115 46t-44 117
q0 72 48 120t119 48q69 0 111 -46.5t42 -116.5zM589 141q0 -51 17 -84q22 -43 69 -43q49 0 73 53q17 38 17 95q0 55 -14 87q-20 46 -68 46q-54 0 -77 -53q-17 -39 -17 -101zM117 492q0 -51 17 -84q22 -43 69 -43q48 0 72 53q18 41 18 95q0 72 -24 105q-20 28 -58 28
q-54 0 -77 -53q-17 -39 -17 -101z" />
    <glyph glyph-name="ampersand" unicode="&#x26;" horiz-adv-x="722" 
d="M319 406q47 34 71 65q31 41 31 89q0 36 -22 60t-58 24q-41 0 -63 -27t-22 -67q0 -26 13.5 -60t49.5 -84zM534 142l125 -144q-26 2 -38 3t-23 1l-57 -3q-25 36 -30 43q-12 17 -33 41q-88 -97 -216 -97q-83 0 -136.5 45.5t-53.5 121.5q0 67 52 124q43 47 123 87l6 3
q-34 51 -45 73q-22 44 -22 83q0 67 42.5 107.5t111.5 40.5q58 0 95 -27.5t37 -77.5q0 -56 -44 -106q-29 -33 -92 -75q61 -78 123 -156l53 -60q28 40 61.5 96.5t57.5 100.5q6 -10 15.5 -20.5t22.5 -20.5q-68 -104 -135 -183zM270 343l-8 -5q-52 -33 -77 -66q-32 -42 -32 -96
q0 -63 42.5 -104.5t104.5 -41.5q40 0 82 20t76 54q-40 49 -96 119.5t-92 119.5z" />
    <glyph glyph-name="quotesingle" unicode="'" horiz-adv-x="278" 
d="M172 616v-169q1 -6 1 -18q0 -20 -8 -31t-26 -11q-35 0 -35 42q0 11 1 18v169q0 45 6 62.5t28 17.5q21 0 27 -17.5t6 -62.5z" />
    <glyph glyph-name="parenleft" unicode="(" horiz-adv-x="278" 
d="M221 748l20 -19q-63 -87 -91 -197q-24 -95 -24 -219q0 -109 26 -210q12 -48 34 -92q15 -30 55 -93l-20 -20q-85 98 -122 198t-37 232q0 246 159 420z" />
    <glyph glyph-name="parenright" unicode=")" horiz-adv-x="278" 
d="M57 -102l-20 20q35 54 54 93q24 47 35 92q26 101 26 210q0 127 -23 218q-27 109 -92 198l20 19q78 -86 118.5 -193.5t40.5 -226.5q0 -134 -36 -232t-123 -198z" />
    <glyph glyph-name="asterisk" unicode="*" horiz-adv-x="444" 
d="M82 624l126 -90l-14 154q8 -1 14.5 -1h14.5q19 0 28 2l-15 -157l125 93q12 -27 30 -51l-141 -64l140 -62q-8 -12 -14 -22.5t-14 -27.5l-127 89l17 -155q-12 1 -21 1.5t-15 0.5q-8 0 -22 -2l14 152l-122 -89l-23 39l-6 10l140 65l-144 64q20 23 29 51z" />
    <glyph glyph-name="plus" unicode="+" horiz-adv-x="606" 
d="M271 286v219h64v-219h220v-64h-220v-222h-64v222h-220v64h220z" />
    <glyph glyph-name="comma" unicode="," horiz-adv-x="278" 
d="M46 -161l70 222q9 27 14 36q13 21 32 21q16 0 28.5 -10.5t12.5 -26.5q0 -13 -7 -28q-2 -4 -15 -25l-118 -196z" />
    <glyph glyph-name="hyphen" unicode="-" horiz-adv-x="333" 
d="M41 190v62h250v-62h-250z" />
    <glyph glyph-name="period" unicode="." horiz-adv-x="278" 
d="M79 49q0 24 18 42t43 18q23 0 41 -18t18 -42t-17 -42t-42 -18t-43 17t-18 43z" />
    <glyph glyph-name="slash" unicode="/" horiz-adv-x="278" 
d="M303 748l-285 -850q-14 2 -23 2q-6 0 -28 -2l285 850q9 -2 26 -2t25 2z" />
    <glyph glyph-name="zero" unicode="0" horiz-adv-x="556" 
d="M282 20q77 0 114 85q34 79 34 231q0 131 -34 211q-39 91 -112 91q-91 0 -127 -80q-31 -69 -31 -224q0 -129 21 -197q36 -117 135 -117zM44 313q0 149 46 238q61 118 196 118q115 0 170.5 -83.5t55.5 -249.5q0 -161 -63.5 -254t-168.5 -93q-128 0 -186 93q-50 80 -50 231z
" />
    <glyph glyph-name="one" unicode="1" horiz-adv-x="556" 
d="M242 -3v604l-7 3l-111 -60q-10 24 -30 37q60 24 107 47q58 28 104 56l17 -5v-682l-40 3z" />
    <glyph glyph-name="two" unicode="2" horiz-adv-x="556" 
d="M123 525l-35 49q60 95 173 95q91 0 143 -41q57 -45 57 -134q0 -58 -30 -114q-24 -44 -73 -96l-119 -127l-61 -64l-17 -19l5 -11q34 0 110 4q171 9 197 9l-3 -38l3 -38h-429v15l82 82l60 62q65 67 90 97q46 55 67 104q26 61 26 132q0 66 -26 102q-29 40 -91 40
q-47 0 -80 -29.5t-42 -76.5z" />
    <glyph glyph-name="three" unicode="3" horiz-adv-x="556" 
d="M122 555l-25 54q17 20 49 36q47 24 98 24q75 0 128 -33q62 -39 62 -110q0 -58 -35.5 -104.5t-99.5 -69.5q71 0 118.5 -41t47.5 -113q0 -96 -75 -154q-71 -55 -179 -55q-42 0 -78.5 7.5t-72.5 24.5q5 13 8 32t4 29l6 4q27 -30 62 -48t73 -18q75 0 118 50t43 126
q0 65 -36 100t-102 35q-8 0 -27.5 -2t-20.5 -2l3 21l-3 20l38 -2q59 0 91 45q29 40 29 101q0 56 -28 91t-78 35q-36 0 -67.5 -22.5t-45.5 -57.5z" />
    <glyph glyph-name="four" unicode="4" horiz-adv-x="556" 
d="M331 186h-310v13q35 52 108 156q56 81 109.5 156t109.5 153l32 -3l31 3v-421l92 4q-1 -8 -1.5 -17.5t-0.5 -14.5v-16q2 -12 2 -17l-92 4v-189l-40 3l-40 -3v189zM333 243v321l-5 4q-57 -75 -141 -198q-42 -61 -83 -122l4 -5h225z" />
    <glyph glyph-name="five" unicode="5" horiz-adv-x="556" 
d="M124 337v329l6 3h321l4 -8q-3 -14 -5 -27.5t-2 -27.5q0 -12 1 -18q-33 7 -66 11.5t-69 4.5h-148v-223q24 12 52 18t55 6q83 0 139 -53t56 -137q0 -91 -66 -156q-71 -70 -183 -70q-61 0 -106 14q-28 9 -54 25l15 66l7 1q22 -36 61 -54.5t84 -18.5q70 0 111 56
q38 52 38 129q0 73 -32 112q-36 44 -111 44q-34 0 -63 -12q-20 -8 -36 -21z" />
    <glyph glyph-name="six" unicode="6" horiz-adv-x="556" 
d="M398 666l11 -35q-21 7 -47 7q-109 0 -168 -117q-46 -92 -46 -213q57 89 162 89q92 0 142.5 -50.5t50.5 -135.5q0 -97 -60.5 -159.5t-157.5 -62.5q-118 0 -177 86q-50 73 -50 198q0 180 82 288t213 108h21.5t23.5 -3zM289 359q-67 0 -104 -45t-37 -131q0 -65 37.5 -114
t100.5 -49t97 57q31 51 31 127q0 71 -34 113t-91 42z" />
    <glyph glyph-name="seven" unicode="7" horiz-adv-x="556" 
d="M80 669h427l1 -29q-35 -57 -109 -185q-93 -161 -131 -229q-67 -121 -121 -229l-34 3l-34 -3l1 11q61 101 123 202q50 82 121 202q67 113 102 178l-4 4q-58 0 -172 -8t-170 -8l3 46z" />
    <glyph glyph-name="eight" unicode="8" horiz-adv-x="556" 
d="M358 379v-7q62 -11 102.5 -55.5t40.5 -109.5q0 -99 -62.5 -158.5t-162.5 -59.5q-99 0 -157 48q-63 52 -63 150q0 64 41 115t104 66v7q-48 12 -79 49t-31 87q0 74 60 118q54 40 131 40q45 0 73.5 -7t59.5 -30q55 -42 55 -111q0 -49 -32 -89t-80 -53zM281 638
q-25 0 -47 -12t-36.5 -33t-19 -41.5t-4.5 -51.5q0 -23 9 -45.5t24 -39.5t33 -23.5t42 -6.5q26 0 47.5 12t36.5 34q9 12 15 32.5t6 54.5q0 51 -28 85.5t-78 34.5zM281 353q-64 0 -100.5 -49.5t-36.5 -115.5q0 -72 32 -117q36 -51 106 -51q66 0 101 56q30 48 30 118
q0 69 -30 111q-35 48 -102 48z" />
    <glyph glyph-name="nine" unicode="9" horiz-adv-x="556" 
d="M96 53l11 4q42 -37 97 -37q46 0 89.5 38.5t69.5 106.5q16 41 24 91.5t8 97.5q-24 -43 -67.5 -67t-93.5 -24q-82 0 -134 51q-55 54 -55 142q0 98 61.5 155.5t162.5 57.5q111 0 168 -89q49 -76 49 -196q0 -171 -84.5 -283t-205.5 -112q-21 0 -46.5 3.5t-32.5 9.5
q-3 24 -21 51zM394 465q0 78 -33 125.5t-95 47.5q-67 0 -103 -57q-30 -48 -30 -119q0 -66 28 -108q33 -49 97 -49q61 0 100 51q36 47 36 109z" />
    <glyph glyph-name="colon" unicode=":" horiz-adv-x="278" 
d="M79 49q0 24 18 42t43 18q23 0 41 -18t18 -42t-17 -42t-42 -18t-43 17t-18 43zM79 410q0 24 18 42t43 18q23 0 41 -18t18 -42t-17 -42t-42 -18t-43 17t-18 43z" />
    <glyph glyph-name="semicolon" unicode=";" horiz-adv-x="278" 
d="M46 -161l70 222q9 27 14 36q13 21 32 21q16 0 28.5 -10.5t12.5 -26.5q0 -13 -7 -28q-2 -4 -15 -25l-118 -196zM97 410q0 24 18 42t43 18q23 0 41 -18t18 -42t-17 -42t-42 -18t-43 17t-18 43z" />
    <glyph glyph-name="less" unicode="&#x3c;" horiz-adv-x="606" 
d="M558 55v-62l-509 234v54l509 234v-62l-428 -199z" />
    <glyph glyph-name="equal" unicode="=" horiz-adv-x="606" 
d="M555 383v-64h-504v64h504zM555 189v-64h-504v64h504z" />
    <glyph glyph-name="greater" unicode="&#x3e;" horiz-adv-x="606" 
d="M48 55l428 199l-428 199v62l509 -234v-54l-509 -234v62z" />
    <glyph glyph-name="question" unicode="?" horiz-adv-x="389" 
d="M266 429l-63 -69q-25 -29 -34 -42q-17 -27 -17 -52t15.5 -41.5t40.5 -16.5q14 0 29 6l6 -4l-12 -28q-7 -4 -27 -4q-48 0 -80 30q-35 33 -35 87q0 28 10.5 54t47.5 64l60 64q25 26 37 45q17 27 17 55q0 38 -27 60.5t-66 22.5q-23 0 -46.5 -13t-37.5 -32l-6 50
q26 15 49.5 23t48.5 8q69 0 109.5 -35t40.5 -95q0 -43 -13.5 -71.5t-46.5 -65.5zM123 49q0 24 18 42t43 18q23 0 41 -18t18 -42t-17 -42t-42 -18t-43 17t-18 43z" />
    <glyph glyph-name="at" unicode="@" horiz-adv-x="800" 
d="M274 258q0 -34 13.5 -54.5t47.5 -20.5q47 0 94 89q42 80 42 139q0 27 -11 42q-14 19 -42 19q-60 0 -105 -80q-39 -70 -39 -134zM495 456l13 46h88l-72 -262q-5 -20 -5 -24q0 -14 7 -23.5t21 -9.5q49 0 95 57q55 68 55 170q0 79 -61 148q-78 88 -211 88q-138 0 -229 -86
t-91 -220q0 -135 93 -220t233 -85q79 0 143.5 37t109.5 103h61q-46 -87 -132.5 -138.5t-186.5 -51.5q-157 0 -266.5 98t-109.5 250q0 153 105 258t263 105q145 0 241 -87q91 -82 91 -197q0 -109 -76 -195q-70 -79 -145 -79q-42 0 -64 24q-18 20 -21 48q-29 -27 -40 -36
q-40 -31 -85 -31q-54 0 -94 42q-21 22 -30.5 46.5t-9.5 56.5q0 82 66 153t150 71q35 0 58.5 -15t35.5 -41z" />
    <glyph glyph-name="A" unicode="A" horiz-adv-x="667" 
d="M351 696l300 -699l-52 3l-53 -3q-36 103 -61 166q-16 40 -44 104h-254q-58 -145 -65 -165q-15 -40 -34 -105l-37 3l-35 -3l312 699h23zM426 309l-111 256l-109 -256h220z" />
    <glyph glyph-name="B" unicode="B" horiz-adv-x="593" 
d="M178 644v-263h44q43 0 71 3.5t57 16.5q77 34 77 121q0 67 -43 94.5t-127 27.5h-79zM178 342v-305h100q74 0 121 43t47 112q0 83 -58 119q-50 31 -149 31h-61zM90 0v681h201q115 0 169 -31t54 -107q0 -67 -44.5 -113.5t-113.5 -63.5q69 0 120 -35q63 -43 63 -122
q0 -107 -90 -169q-39 -27 -101 -35q-38 -5 -110 -5h-148z" />
    <glyph glyph-name="C" unicode="C" horiz-adv-x="667" 
d="M616 105l-5 -63q-44 -30 -102 -43.5t-119 -13.5q-164 0 -258 97t-94 261t109 261q104 92 268 92q53 0 108.5 -12t106.5 -34q-6 -15 -12 -37.5t-9 -39.5l-7 -1q-11 14 -39 34q-73 52 -152 52q-132 0 -206 -95q-69 -88 -69 -224q0 -143 74 -229t194 -86q54 0 111 21.5
t101 59.5z" />
    <glyph glyph-name="D" unicode="D" horiz-adv-x="778" 
d="M188 641v-596q30 0 80 -1.5t51 -1.5q57 0 93 5t69 22q76 38 112 118q32 71 32 169q0 158 -70.5 223.5t-240.5 65.5q-21 0 -71 -2t-55 -2zM100 0v681h227h68q94 0 143 -16q41 -13 78 -44q54 -44 80.5 -110t26.5 -140q0 -99 -35 -175q-31 -67 -91 -120
q-43 -37 -107.5 -56.5t-194.5 -19.5h-195z" />
    <glyph glyph-name="E" unicode="E" horiz-adv-x="500" 
d="M177 634v-251h155q19 0 50.5 2.5t38.5 2.5l-3 -26l3 -28q-18 0 -50 2.5t-39 2.5h-155v-292q32 0 104.5 2t76.5 2q28 0 41 1.5t51 7.5l-3 -30l3 -30h-361v681h355l-3 -30l3 -30q-30 6 -49 8.5t-41 2.5l-100 2h-77z" />
    <glyph glyph-name="F" unicode="F" horiz-adv-x="500" 
d="M89 -3v684h355l-3 -30l3 -30q-30 6 -49 8.5t-41 2.5l-100 2h-77v-251h155q19 0 50.5 2.5t38.5 2.5l-3 -26l3 -28q-18 0 -50 2.5t-39 2.5h-155v-342l-44 3z" />
    <glyph glyph-name="G" unicode="G" horiz-adv-x="778" 
d="M686 561h-11q-41 47 -100.5 72t-124.5 25q-131 0 -209.5 -82.5t-78.5 -231.5q0 -152 76.5 -236.5t222.5 -84.5q42 0 82.5 8.5t73.5 25.5v257l44 -3l44 3v-283q-133 -46 -272 -46q-182 0 -279 101q-90 94 -90 253q0 170 111 266q106 91 279 91q98 0 175 -23q47 -14 80 -35
q-4 -11 -10.5 -33t-12.5 -44z" />
    <glyph glyph-name="H" unicode="H" horiz-adv-x="778" 
d="M599 394v287l44 -3l44 3v-684l-44 3l-44 -3v344q-49 0 -79 1q-120 4 -131 4q-48 0 -123 -2.5t-88 -2.5v-344l-44 3l-44 -3v684l44 -3l44 3v-287q50 0 125.5 -2.5t85.5 -2.5q48 0 78 1q120 4 132 4z" />
    <glyph glyph-name="I" unicode="I" horiz-adv-x="278" 
d="M95 -3v684l44 -3l44 3v-684l-44 3z" />
    <glyph glyph-name="J" unicode="J" horiz-adv-x="278" 
d="M198 681v-594q0 -98 -54.5 -161.5t-149.5 -63.5l-8 27q74 0 103 59q21 43 21 126v607l44 -3z" />
    <glyph glyph-name="K" unicode="K" horiz-adv-x="611" 
d="M582 681l-227 -218l-85 -86q121 -138 243 -275l81 -100v-5l-55 3l-56 -3q-16 23 -33.5 46.5t-35.5 44.5l-218 255q-5 4 -13 5q-4 -1 -4 -2v-349l-44 3l-44 -3v684l44 -3l44 3v-309q1 -4 9.5 -2t16.5 8.5t33 30.5q9 9 19 18l246 254l40 -3z" />
    <glyph glyph-name="L" unicode="L" horiz-adv-x="500" 
d="M177 681v-634q32 0 104.5 2t76.5 2q24 0 59 4q24 4 36 5l-3 -30l3 -30h-364v681l44 -3z" />
    <glyph glyph-name="M" unicode="M" horiz-adv-x="889" 
d="M737 681h21q21 -199 26 -244q16 -147 26.5 -228.5t28.5 -211.5l-47 3l-47 -3q-9 100 -16.5 191t-17 180t-17.5 145q-61 -110 -106 -192q-52 -96 -87 -166q-38 -77 -69 -147h-11l-55 113q-36 75 -64 129.5t-69 132.5q-35 65 -69 130q-17 -143 -33 -289t-16 -227l-35 3
l-36 -3q21 130 55 369.5t41 314.5h26q52 -102 85 -167q40 -77 95 -177q60 -109 103 -180z" />
    <glyph glyph-name="N" unicode="N" horiz-adv-x="778" 
d="M680 681v-684h-30l-52 61l-432 478h-10v-539l-28 3l-28 -3v684h39l475 -515h10v515l28 -3z" />
    <glyph glyph-name="O" unicode="O" horiz-adv-x="833" 
d="M693 346q0 68 -13 120.5t-50 99.5t-91.5 72t-116.5 25q-131 0 -206.5 -91.5t-75.5 -244.5q0 -147 80 -231q75 -78 193 -78q141 0 219 122q61 95 61 206zM410 -15q-167 0 -267.5 96.5t-100.5 257.5t107 261q103 96 263 96q156 0 260 -81q119 -93 119 -261
q0 -166 -106 -267.5t-275 -101.5z" />
    <glyph glyph-name="P" unicode="P" horiz-adv-x="556" 
d="M167 311v-314l-44 3l-44 -3v684h179q146 0 202 -36t56 -128q0 -88 -54 -137q-50 -45 -160 -67q-13 -3 -35 -4t-25 -1q-23 0 -41 1t-34 2zM167 642v-292q3 -1 27 -1q9 -1 19 -1h20h16q12 2 17 2q74 7 116 51t42 111q0 54 -26 87q-29 37 -65 40.5t-56.5 3.5h-32.5
q-22 0 -41 -0.5t-36 -0.5z" />
    <glyph glyph-name="Q" unicode="Q" horiz-adv-x="833" 
d="M412 696q164 0 268 -87q111 -93 111 -253q0 -141 -79 -234q-67 -79 -184 -119q112 -84 224 -169q-35 -16 -40 -18q-21 -11 -38 -23q-8 11 -87 81q-88 77 -139 114l-24 -3q-171 0 -274 91q-108 96 -108 264q0 155 106.5 255.5t263.5 100.5zM693 346q0 69 -13 120.5t-50 99
t-91.5 72.5t-116.5 25q-140 0 -215 -102q-67 -91 -67 -234q0 -153 83 -235q74 -74 190 -74q106 0 176 66q55 52 83 140q21 65 21 122z" />
    <glyph glyph-name="R" unicode="R" horiz-adv-x="611" 
d="M178 644v-275q9 0 22 -0.5t29 -0.5q22 0 41 1t37 5q56 12 92 49.5t36 93.5q0 108 -110 126q-21 3 -52 3q-16 0 -49 -1t-46 -1zM90 -3v684h212q114 0 168 -37.5t54 -114.5q0 -81 -64 -132q-53 -42 -141 -58l206 -261l48 -56l19 -25l-58 3l-57 -3l-63 87l-118 153l-80 94
h-38v-334l-44 3z" />
    <glyph glyph-name="S" unicode="S" horiz-adv-x="500" 
d="M64 132h10q32 -52 66 -76q40 -28 96 -28q60 0 99.5 42.5t39.5 103.5q0 76 -81 118q-76 33 -151 67q-81 49 -81 145q0 92 66 144q61 48 156 48q40 0 78 -12t65 -36q-7 -16 -12 -30q-1 -3 -15 -52h-10q-16 42 -47.5 64.5t-76.5 22.5q-53 0 -89.5 -32.5t-36.5 -84.5
q0 -76 81 -118q76 -34 152 -67q82 -48 82 -138q0 -105 -72 -168q-68 -60 -175 -60q-41 0 -90 16t-73 42q8 22 11.5 40.5t7.5 48.5z" />
    <glyph glyph-name="T" unicode="T" horiz-adv-x="556" 
d="M327 633v-638l-44 3l-44 -3v638q-78 0 -111 -2t-108 -10l3 30l-3 30h516l-3 -30l3 -30q-37 4 -93.5 8t-115.5 4z" />
    <glyph glyph-name="U" unicode="U" horiz-adv-x="778" 
d="M182 681v-383q0 -138 46 -199q51 -68 175 -68q113 0 167 77q49 70 49 200v373l28 -3l28 3v-398q0 -145 -78.5 -221.5t-213.5 -76.5q-140 0 -217 70q-42 38 -59 104q-13 50 -13 122v400l44 -3z" />
    <glyph glyph-name="V" unicode="V" horiz-adv-x="667" 
d="M413 227l105 271l60 167l7 16l37 -3l36 3q-18 -34 -81 -179q-69 -157 -124 -291q-67 -161 -84 -214l-20 3l-21 -3q-46 95 -119 262q-56 129 -110.5 256.5t-74.5 165.5l48 -3l49 3l37 -97l67 -175l123 -303h9q20 40 29 60q17 34 27 61z" />
    <glyph glyph-name="W" unicode="W" 
d="M191 129l-179 552l47 -3l46 3q5 -15 15 -52q7 -27 15 -54l59 -203l84 -264h9q19 56 73 211q60 175 74 216q37 112 47 146l29 -3l28 3l190 -573h9q20 51 40 114l117 377l24 82l35 -3l35 3q-28 -65 -50 -128l-191 -556l-33 3l-33 -3l-181 561h-8l-194 -561l-33 3l-34 -3z
" />
    <glyph glyph-name="X" unicode="X" horiz-adv-x="611" 
d="M157 174l111 167l-115 189l-99 151l54 -3l54 3l51 -86l106 -182l168 268l37 -3l37 3l-17 -20l-153 -213l-49 -74l232 -377l-55 3l-55 -3q-80 157 -173 304q-93 -140 -181 -304l-37 3l-37 -3z" />
    <glyph glyph-name="Y" unicode="Y" horiz-adv-x="611" 
d="M353 304v-307l-44 3l-44 -3v288l-245 396l56 -3l55 3q33 -65 98.5 -180t91.5 -155q16 19 58 92q30 52 78 141q27 51 55 102l39 -3l39 3q-37 -47 -71 -100l-110 -177q-20 -31 -31.5 -51t-24.5 -49z" />
    <glyph glyph-name="Z" unicode="Z" horiz-adv-x="611" 
d="M17 22l291 406q48 69 72 103q33 47 70 105l-114 1q-57 0 -111 -4q-163 -12 -167 -12l3 30l-3 30h526v-19q-55 -72 -136 -182q-76 -103 -148 -208q-90 -131 -152 -226l152 -2q48 0 145 8t135 8l-3 -30l3 -30h-563v22z" />
    <glyph glyph-name="bracketleft" unicode="[" horiz-adv-x="333" 
d="M135 -116v864h157v-29h-97v-806h97v-29h-157z" />
    <glyph glyph-name="backslash" unicode="\" horiz-adv-x="500" 
d="M95 748l372 -748q-11 1 -19 1.5t-13 0.5h-15q-10 -2 -15 -2l-372 748q8 -1 15.5 -1.5t15.5 -0.5h12q7 0 19 2z" />
    <glyph glyph-name="bracketright" unicode="]" horiz-adv-x="333" 
d="M198 748v-864h-157v29h97v806h-97v29h157z" />
    <glyph glyph-name="asciicircum" unicode="^" horiz-adv-x="606" 
d="M121 275h-70l219 406h66l218 -406h-70l-181 326z" />
    <glyph glyph-name="underscore" unicode="_" horiz-adv-x="500" 
d="M500 -160h-500v38h500v-38z" />
    <glyph glyph-name="grave" unicode="`" horiz-adv-x="333" 
d="M240 532h-35l-157 98q-10 8 -13 10q-9 6 -12 13t-3 14q0 4 2 12q11 28 41 21q10 -4 13 -7q10 -7 21 -18.5t17 -17.5z" />
    <glyph glyph-name="a" unicode="a" horiz-adv-x="500" 
d="M413 313v-232v-29q3 -21 27 -21q13 0 29 4v-22q-5 -2 -14.5 -5.5t-21 -5.5t-27.5 -2q-29 0 -47.5 14t-22.5 47l-9 -9q-63 -63 -148 -63q-55 0 -94 34t-39 88q0 76 57 109q35 20 128 35q65 11 82 20q24 13 24 47q0 56 -30.5 86.5t-86.5 30.5q-48 0 -84 -26
q-28 -20 -35 -43h-11v56q39 27 78.5 41t82.5 14q162 0 162 -168zM333 100v146l-35 -7q-87 -17 -110 -27q-60 -27 -60 -87q0 -46 26 -70t72 -24q19 0 42 11.5t38 26.5q8 7 17.5 16.5t9.5 14.5z" />
    <glyph glyph-name="b" unicode="b" horiz-adv-x="556" 
d="M293 439q-79 0 -118 -73q-32 -60 -32 -162q0 -82 37.5 -132.5t102.5 -50.5q77 0 117 77q32 61 32 147q0 87 -32 137q-37 57 -107 57zM65 0v748l40 -3l40 3v-370q34 50 73 75q44 28 100 28q99 0 154 -74q48 -65 48 -158q0 -106 -59 -180q-64 -80 -167 -80q-55 0 -95 25
q-28 17 -47 46q-12 -9 -34 -29q-17 -16 -34 -31h-19z" />
    <glyph glyph-name="c" unicode="c" horiz-adv-x="500" 
d="M458 440l-23 -66h-8q-6 8 -13 17.5t-14 15.5q-17 19 -44 29.5t-55 10.5q-82 0 -129 -63q-43 -58 -43 -142q0 -96 50.5 -157.5t131.5 -61.5q41 0 75 18q26 14 63 47l6 -3l-5 -46q-68 -50 -153 -50q-122 0 -191 71q-65 67 -65 177q0 114 72 179t187 65q46 0 84 -9.5
t74 -31.5z" />
    <glyph glyph-name="d" unicode="d" horiz-adv-x="556" 
d="M487 748v-751l-40 3l-40 -3v96q-61 -104 -172 -104q-89 0 -142 59q-58 64 -58 183q0 106 59 178t156 72q50 0 90 -25.5t67 -71.5v364l40 -3zM407 249q0 75 -29 127q-36 64 -106 64q-86 0 -122 -73q-27 -54 -27 -150q0 -76 29 -128q36 -64 108 -64q78 0 117 77
q30 60 30 147z" />
    <glyph glyph-name="e" unicode="e" horiz-adv-x="500" 
d="M443 100l-1 -52q-39 -28 -82 -43.5t-90 -15.5q-106 0 -171 66t-65 180q0 109 58 175q62 71 171 71q89 0 143 -59q60 -65 60 -186l-203 3h-141q0 -90 41 -146q46 -62 132 -62q46 0 89 24q29 16 59 45zM122 276h266q0 77 -25 120q-31 54 -100 54q-67 0 -106 -55
q-35 -49 -35 -119z" />
    <glyph glyph-name="f" unicode="f" horiz-adv-x="278" 
d="M88 -3v440h-69q2 6 2 19q0 12 -2 19h69l2 8q18 141 76 210q46 56 115 56q13 0 20 -1q-3 -14 -4 -38t-1 -42l-5 -4l-20 10q-8 3 -20.5 4t-14.5 1q-45 0 -64.5 -28t-19.5 -77q0 -22 4 -48t10 -51h102q-2 -14 -2 -19q0 -7 2 -19h-100v-440l-40 3z" />
    <glyph glyph-name="g" unicode="g" horiz-adv-x="500" 
d="M252 5q-155 0 -155 -118q0 -59 39.5 -90t104.5 -31q64 0 106 28q52 34 52 100q0 55 -26 81q-30 30 -121 30zM464 478v-38l-110 9q33 -25 51 -58t18 -74q0 -77 -63 -118q-57 -37 -150 -37q-9 1 -16 1q-23 0 -36 -8q-20 -12 -20 -41q0 -30 22 -39t74 -9h64
q88 0 130.5 -33.5t42.5 -99.5q0 -88 -69.5 -142.5t-184.5 -54.5q-70 0 -121 34q-60 40 -60 113q0 52 27.5 82t76.5 39v8q-36 6 -48.5 26.5t-12.5 54.5q0 32 20 54q16 18 49 32q-48 22 -71 54q-26 36 -26 89q0 76 46 116q50 43 156 43l139 -5q10 -1 17.5 -1.5t12.5 -0.5
q10 0 22.5 1.5t19.5 2.5zM127 323q0 -57 28 -96.5t81 -39.5q52 0 83 40q28 36 28 91q0 64 -23 97q-27 39 -84 39q-52 0 -82.5 -36.5t-30.5 -94.5z" />
    <glyph glyph-name="h" unicode="h" horiz-adv-x="556" 
d="M77 -3v751l40 -3l40 3v-364q26 46 67.5 71.5t93.5 25.5q85 0 123 -48.5t38 -146.5v-289l-40 3l-40 -3v266q0 87 -23 124q-26 42 -88 42q-131 0 -131 -160v-272l-40 3z" />
    <glyph glyph-name="i" unicode="i" horiz-adv-x="278" 
d="M179 475v-478l-40 3l-40 -3v478l40 -3zM190 646q0 -21 -15 -36t-36 -15t-36 15t-15 36t15 36t36 15q20 0 35.5 -14.5t15.5 -36.5z" />
    <glyph glyph-name="j" unicode="j" horiz-adv-x="278" 
d="M105 -4v479l40 -3l40 3v-483q0 -72 -10 -114q-14 -59 -53 -97q-51 -45 -115 -45l-7 32l9 -2q4 -1 11 -1q20 0 37 20q12 15 25.5 46.5t18 73.5t4.5 91zM196 646q0 -21 -15 -36t-36 -15t-36 15t-15 36t15 36t36 15q20 0 35.5 -14.5t15.5 -36.5z" />
    <glyph glyph-name="k" unicode="k" horiz-adv-x="500" 
d="M159 748v-448q-1 -14 -1 -20q0 -10 6 -13q11 -6 33 10q16 11 54 49l62 63l78 86l40 -3l39 3v-7q-69 -58 -120 -103q-61 -53 -100 -90l235 -273v-5l-49 3l-50 -3q-26 34 -64 79q-29 34 -127 146q-14 16 -23 16q-13 0 -13 -37v-204l-40 3l-40 -3v751l40 -3z" />
    <glyph glyph-name="l" unicode="l" horiz-adv-x="278" 
d="M99 -3v751l40 -3l40 3v-751l-40 3z" />
    <glyph glyph-name="m" unicode="m" horiz-adv-x="833" 
d="M71 -3v478l40 -3l40 3v-86q25 44 61.5 68t86.5 24t90.5 -26t55.5 -73q59 99 157 99q88 0 126 -51q35 -46 35 -144v-289l-40 3l-40 -3v266q0 81 -18 116q-25 50 -93 50q-67 0 -95 -54q-20 -39 -20 -108v-270l-40 3l-40 -3v293q0 139 -106 139q-70 0 -98 -43
q-22 -34 -22 -98v-291l-40 3z" />
    <glyph glyph-name="n" unicode="n" horiz-adv-x="556" 
d="M77 -3v478l40 -3l40 3v-91q26 46 67.5 71.5t93.5 25.5q85 0 123 -47t38 -148v-289l-40 3l-40 -3v266q0 80 -20 118q-26 48 -91 48q-74 0 -105 -54q-26 -46 -26 -146v-232l-40 3z" />
    <glyph glyph-name="o" unicode="o" horiz-adv-x="556" 
d="M35 240q0 106 72.5 173.5t181.5 67.5q103 0 167.5 -66.5t64.5 -177.5q0 -102 -63 -172q-69 -76 -187 -76q-103 0 -169.5 68.5t-66.5 182.5zM288 450q-88 0 -130 -72q-35 -59 -35 -153q0 -85 35 -140q41 -65 121 -65q79 0 121 81q33 63 33 141q0 82 -30 137
q-39 71 -115 71z" />
    <glyph glyph-name="p" unicode="p" horiz-adv-x="556" 
d="M146 223q0 -85 35 -136q39 -56 112 -56q70 0 106 65q31 57 31 152q0 86 -28 136q-35 63 -110 63q-78 0 -116 -77q-30 -60 -30 -147zM146 -259l-40 3l-40 -3v734l40 -3l40 3v-101q34 60 68 81q43 26 103 26q93 0 149 -69q52 -64 52 -160q0 -121 -59.5 -192t-156.5 -71
q-53 0 -90.5 24t-63.5 72z" />
    <glyph glyph-name="q" unicode="q" horiz-adv-x="556" 
d="M407 224q0 93 -36 155q-39 68 -109 68q-73 0 -108 -57q-30 -50 -30 -140q0 -92 28 -147q37 -72 121 -72q63 0 100 59q34 54 34 134zM407 475l40 -3l40 3v-734l-40 3l-40 -3v342q-49 -94 -156 -94q-102 0 -161 74q-54 68 -54 173q0 107 52.5 176t147.5 69q72 0 120 -41
q34 -29 49 -68z" />
    <glyph glyph-name="r" unicode="r" horiz-adv-x="333" 
d="M79 -3v478l40 -3l40 3v-100l5 12q27 43 56 66q35 28 70 28q20 0 31 -5l-14 -84q-5 1 -21 8.5t-26 7.5q-17 0 -35 -6.5t-29 -18.5q-23 -27 -30 -55t-7 -72v-259l-40 3z" />
    <glyph glyph-name="s" unicode="s" horiz-adv-x="389" 
d="M63 94h8q19 -32 50 -53t65 -21q38 0 68 26t30 65q0 62 -118 96t-118 126q0 70 46 109t117 39q35 0 66.5 -8.5t46.5 -17.5q-15 -34 -24 -71h-9q-10 26 -34 46t-51 20q-39 0 -65 -22t-26 -61q0 -60 118 -98t118 -122q0 -75 -59 -119q-52 -39 -125 -39q-31 0 -65.5 8.5
t-59.5 23.5q6 18 12 36.5t9 36.5z" />
    <glyph glyph-name="t" unicode="t" horiz-adv-x="278" 
d="M72 574l80 31v-130h106q-2 -14 -2 -21t2 -17h-106v-251v-32q0 -61 10 -87q17 -43 64 -43q11 0 24.5 3t20.5 4v-24q-24 -9 -43 -13.5t-41 -4.5q-60 0 -86 32q-29 36 -29 125v291h-62q2 6 2 19q0 12 -2 19h62v99z" />
    <glyph glyph-name="u" unicode="u" horiz-adv-x="556" 
d="M473 475v-478l-40 3l-40 -3v86q-49 -94 -159 -94q-84 0 -124.5 45.5t-40.5 146.5v294l40 -3l40 3v-270q0 -84 27.5 -125.5t93.5 -41.5q69 0 100 54q23 40 23 107v276l40 -3z" />
    <glyph glyph-name="v" unicode="v" horiz-adv-x="500" 
d="M337 259l80 216l32 -3l32 3q-17 -35 -65 -142q-44 -98 -75 -172q-44 -105 -64 -164l-30 3l-31 -3q-32 86 -87 222q-61 151 -109 256l45 -3l44 3q46 -152 149 -385q7 10 10 14q7 9 9 14z" />
    <glyph glyph-name="w" unicode="w" horiz-adv-x="778" 
d="M762 475q-12 -24 -51.5 -110.5t-76.5 -177.5q-50 -121 -73 -190l-27 3l-27 -3q-19 72 -55.5 179t-67.5 184q-56 -110 -136 -363l-27 3l-27 -3q-91 278 -177 478l44 -3l44 3q31 -106 58 -187q32 -94 69 -184q31 66 73 178.5t67 192.5l26 -3l26 3q21 -82 57 -187t71 -185
q40 95 82 200q52 130 65 172l32 -3z" />
    <glyph glyph-name="x" unicode="x" horiz-adv-x="500" 
d="M211 233l-182 242l51 -3l51 3q21 -37 61.5 -95t67.5 -91l56 72l84 114l34 -3l35 3q-98 -105 -186 -215l187 -253v-10l-47 3l-47 -3q-22 37 -63 97q-44 65 -78 109q-33 -44 -70 -96q-50 -70 -74 -110l-30 3l-30 -3v10z" />
    <glyph glyph-name="y" unicode="y" horiz-adv-x="500" 
d="M228 1l-202 474l48 -3l47 3q27 -83 64.5 -176.5t84.5 -194.5q32 65 77 178q37 92 73 193l33 -3l32 3q-47 -105 -114 -252q-62 -137 -108 -242q-61 -139 -101 -240l-34 3l-34 -3z" />
    <glyph glyph-name="z" unicode="z" horiz-adv-x="500" 
d="M456 461l-311 -421h28q51 0 103 3q155 9 173 9l-3 -26l3 -26h-427v9q41 50 111 142q31 41 115 154.5t93 125.5h-25q-45 0 -91 -3q-137 -9 -152 -9l3 25l-3 26h383v-9z" />
    <glyph glyph-name="braceleft" unicode="{" horiz-adv-x="333" 
d="M206 175v-166q0 -55 18.5 -85t64.5 -40q-89 0 -120 28q-35 31 -35 122v163q0 54 -13 77q-16 27 -63 41q45 13 60.5 38t15.5 77v178q0 85 40 115q33 25 115 25q-47 -12 -65 -41t-18 -85v-177q0 -59 -14 -85q-17 -32 -67 -45q49 -13 67 -49q14 -29 14 -91z" />
    <glyph glyph-name="bar" unicode="|" horiz-adv-x="333" 
d="M134 0v748h64v-748h-64z" />
    <glyph glyph-name="braceright" unicode="}" horiz-adv-x="333" 
d="M127 8v167q0 63 13 90q17 36 68 49q-49 13 -65 42t-16 89v177q0 55 -17.5 84.5t-65.5 41.5q82 0 115 -25q40 -30 40 -116v-178q0 -52 15 -77t61 -38q-48 -13 -62 -37t-14 -80v-163q0 -91 -35 -122q-31 -28 -120 -28q46 9 64.5 39.5t18.5 84.5z" />
    <glyph glyph-name="asciitilde" unicode="~" horiz-adv-x="606" 
d="M520 339l35 -40q-25 -47 -56 -74q-40 -35 -85 -35q-18 0 -49 10q-16 5 -86 34q-40 16 -42 17q-26 9 -45 9q-36 0 -64 -30q-15 -16 -42 -62l-35 40q30 54 56 79q38 37 86 37q37 0 118 -35.5t104 -35.5q32 0 63 28q24 22 42 58z" />
    <glyph glyph-name="c128" 
 />
    <glyph glyph-name="c129" 
 />
    <glyph glyph-name="c141" 
 />
    <glyph glyph-name="c142" 
 />
    <glyph glyph-name="c143" 
 />
    <glyph glyph-name="c144" horiz-adv-x="556" 
d="M157 127q65 70 142 165t140 183h40v-478l-40 3l-40 -3v348q-67 -75 -98 -112q-46 -54 -97 -118.5t-87 -117.5h-40v478q5 -1 22 -2t18 -1h19l21 3v-348z" />
    <glyph glyph-name="c157" 
 />
    <glyph glyph-name="c158" 
 />
    <glyph glyph-name="nonbreakingspace" unicode="&#xa0;" horiz-adv-x="500" 
 />
    <glyph glyph-name="exclamdown" unicode="&#xa1;" 
 />
    <glyph glyph-name="cent" unicode="&#xa2;" 
 />
    <glyph glyph-name="sterling" unicode="&#xa3;" 
 />
    <glyph glyph-name="currency" unicode="&#xa4;" horiz-adv-x="556" 
d="M32 141l54 54q-56 71 -56 152q0 45 12 81.5t41 70.5l-54 55l44 44l54 -55q33 27 73 40.5t81 13.5q83 0 148 -53l53 53l43 -43l-53 -53q28 -33 41.5 -71.5t13.5 -80.5q0 -41 -13.5 -79.5t-43.5 -73.5l53 -54l-43 -43l-53 53q-31 -25 -68.5 -38.5t-78.5 -13.5
q-87 0 -151 52l-53 -53zM281 536q-79 0 -134.5 -54.5t-55.5 -134.5q0 -78 55 -132t134 -54q78 0 132 55t54 133q0 76 -54.5 131.5t-130.5 55.5z" />
    <glyph glyph-name="yen" unicode="&#xa5;" horiz-adv-x="556" 
d="M161 427l-148 259l52 -3l52 3q25 -56 89 -179.5t87 -160.5q21 26 91 163q51 100 87 177l36 -3l36 3l-66 -105l-88 -154h103v-49h-131q-12 -22 -23.5 -44.5t-14.5 -29.5v-36h169v-49h-169v-222l-41 3l-41 -3v222h-183v49h183v17l-54 93h-129v49h103z" />
    <glyph glyph-name="brokenbar" unicode="&#xa6;" horiz-adv-x="333" 
d="M134 748h64v-280h-64v280zM134 0v280h64v-280h-64z" />
    <glyph glyph-name="section" unicode="&#xa7;" horiz-adv-x="500" 
d="M277 131l-53 23q-82 35 -111 59q-52 43 -52 111q0 67 67 120q-27 48 -27 86q0 75 50 120.5t126 45.5q81 0 134 -56q-10 -12 -17 -25.5t-13 -32.5h-9q-14 36 -42.5 58.5t-60.5 22.5q-21 0 -41 -5.5t-36.5 -18t-27.5 -32t-11 -42.5q0 -35 19 -58t53 -38l125 -55
q41 -19 64.5 -51t23.5 -76q0 -35 -15 -66.5t-42 -61.5q38 -41 38 -80q0 -89 -60 -143.5t-150 -54.5q-37 0 -70.5 10.5t-70.5 30.5q7 26 9.5 43.5t2.5 41.5h9q25 -45 64 -67.5t87 -22.5q50 0 88.5 37.5t38.5 73.5q0 41 -26 66q-18 17 -64 37zM237 235l74 -31l55 -30
q13 20 20.5 37t7.5 35q0 31 -21.5 55.5t-61.5 42.5l-104 47q-17 7 -34.5 16t-28.5 22q-16 -14 -27 -33.5t-11 -38.5q0 -28 17.5 -50t51.5 -42q20 -12 62 -30z" />
    <glyph glyph-name="dieresis" unicode="&#xa8;" horiz-adv-x="500" 
d="M177 634v-251h155q19 0 50.5 2.5t38.5 2.5l-3 -26l3 -28q-18 0 -50 2.5t-39 2.5h-155v-292q32 0 104.5 2t76.5 2q28 0 41 1.5t51 7.5l-3 -30l3 -30h-361v681h355l-3 -30l3 -30q-30 6 -49 8.5t-41 2.5l-100 2h-77zM377 757q-18 0 -32 14t-14 32q0 19 13.5 32.5t32.5 13.5
q18 0 32 -14t14 -32t-14 -32t-32 -14zM181 757q-18 0 -32 14t-14 32q0 19 13.5 32.5t32.5 13.5t32.5 -13.5t13.5 -32.5q0 -18 -14 -32t-32 -14z" />
    <glyph glyph-name="copyright" unicode="&#xa9;" horiz-adv-x="750" 
d="M374 -15q-146 0 -250 104t-104 251t103.5 251.5t250.5 104.5t252 -104t105 -252t-104.5 -251.5t-252.5 -103.5zM374 35q124 0 213 90t89 215t-88.5 215.5t-213.5 90.5q-123 0 -211 -91t-88 -215t88.5 -214.5t210.5 -90.5zM513 212l-6 -38q-26 -17 -60 -24.5t-71 -7.5
q-98 0 -154 54t-56 146t63 144.5t161 52.5q67 0 128 -26q-7 -17 -12 -46h-4q-9 14 -37 26q-36 16 -77 16q-70 0 -112 -48t-42 -121q0 -78 43 -123t107 -45q41 0 82 16q13 5 47 24z" />
    <glyph glyph-name="ordfeminine" unicode="&#xaa;" 
 />
    <glyph glyph-name="guillemotleft" unicode="&#xab;" horiz-adv-x="500" 
d="M217 34l-120 190l126 185q8 -10 16 -16t21 -10l-112 -158l107 -165q-24 -7 -38 -26zM360 34l-120 190l126 185q8 -10 16 -16t21 -10l-112 -158l107 -165q-24 -7 -38 -26z" />
    <glyph glyph-name="logicalnot" unicode="&#xac;" horiz-adv-x="606" 
d="M491 113v206h-440v64h504v-270h-64z" />
    <glyph glyph-name="minus" unicode="&#xad;" 
 />
    <glyph glyph-name="registered" unicode="&#xae;" horiz-adv-x="750" 
d="M376 -15q-147 0 -252 104t-105 252t104.5 251.5t252.5 103.5q146 0 250 -104t104 -251q0 -148 -103 -252t-251 -104zM376 35q123 0 211 90t88 216q0 125 -88 215t-211 90q-124 0 -213 -90t-89 -215q0 -124 89 -215t213 -91zM296 336v-186l-26 3l-26 -3v382h126
q68 0 100 -21t32 -64q0 -45 -38 -73q-33 -24 -84 -33l123 -146l28 -31l11 -14l-34 3l-34 -3l-37 49l-71 85l-47 52h-23zM296 502v-136h65q40 0 64.5 20.5t24.5 53.5q0 62 -67 62h-87z" />
    <glyph glyph-name="macron" unicode="&#xaf;" 
 />
    <glyph glyph-name="degree" unicode="&#xb0;" horiz-adv-x="400" 
d="M350 519q0 -62 -44 -106t-106 -44t-106 44t-44 106t44 106t106 44t106 -44t44 -106zM310 519q0 45 -32.5 77.5t-78.5 32.5q-45 0 -77 -32t-32 -78t32 -78t78 -32q45 0 77.5 32.5t32.5 77.5z" />
    <glyph glyph-name="plusminus" unicode="&#xb1;" horiz-adv-x="606" 
d="M271 346v159h64v-159h220v-64h-220v-162h-64v162h-220v64h220zM555 0h-504v64h504v-64z" />
    <glyph glyph-name="twosuperior" unicode="&#xb2;" 
 />
    <glyph glyph-name="threesuperior" unicode="&#xb3;" 
 />
    <glyph glyph-name="acute" unicode="&#xb4;" horiz-adv-x="333" 
d="M285 630l-157 -98h-34l125 125l25 25q13 9 27 18q12 3 24 -3t15.5 -15t3.5 -18q0 -8 -4 -12q-3 -7 -12 -13t-13 -9z" />
    <glyph glyph-name="mu" unicode="&#xb5;" horiz-adv-x="556" 
d="M393 199v276l40 -3l40 3v-478l-40 3l-40 -3v86q-49 -94 -159 -94q-49 0 -85 27v-275l-40 3l-40 -3v734l40 -3l40 3v-270q0 -84 27.5 -125.5t93.5 -41.5q69 0 100 54q23 40 23 107z" />
    <glyph glyph-name="paragraph" unicode="&#xb6;" horiz-adv-x="800" 
d="M497 649h-88v-751l-31 3l-32 -3v426l-36 -3q-90 0 -140 45q-54 48 -54 138q0 49 20 91t60 63q29 15 65.5 19t87.5 4h21h190v-783l-31 3l-32 -3v751zM251 532v-65q0 -50 15 -79q20 -38 66 -38l14 1v298q-57 0 -78 -32q-17 -26 -17 -85z" />
    <glyph glyph-name="periodcentered" unicode="&#xb7;" horiz-adv-x="278" 
d="M79 230q0 24 18 42t43 18q23 0 41 -18t18 -42t-17 -42t-42 -18t-43 17t-18 43z" />
    <glyph glyph-name="periodcentered" unicode="&#x2219;" horiz-adv-x="278" 
d="M79 230q0 24 18 42t43 18q23 0 41 -18t18 -42t-17 -42t-42 -18t-43 17t-18 43z" />
    <glyph glyph-name="cedilla" unicode="&#xb8;" horiz-adv-x="500" 
d="M348 551q-18 0 -32 14t-14 32q0 19 13.5 32.5t32.5 13.5q18 0 32 -14t14 -32t-14 -32t-32 -14zM152 551q-18 0 -32 14t-14 32q0 19 13.5 32.5t32.5 13.5t32.5 -13.5t13.5 -32.5q0 -18 -14 -32t-32 -14zM443 100l-1 -52q-39 -28 -82 -43.5t-90 -15.5q-106 0 -171 66
t-65 180q0 109 58 175q62 71 171 71q89 0 143 -59q60 -65 60 -186l-203 3h-141q0 -90 41 -146q46 -62 132 -62q46 0 89 24q29 16 59 45zM122 276h266q0 77 -25 120q-31 54 -100 54q-67 0 -106 -55q-35 -49 -35 -119z" />
    <glyph glyph-name="onesuperior" unicode="&#xb9;" horiz-adv-x="340" 
d="M12 552q0 64 47 104t118 40q70 0 113 -44q20 -20 29 -46.5t9 -55.5q0 -43 -22.5 -79t-59 -53t-80.5 -17q-34 0 -67 13q-13 5 -23 11t-27 23q-22 22 -29.5 46t-7.5 58zM177 678q-57 0 -85 -44q-23 -36 -23 -91q0 -51 23 -84q28 -40 79 -40t78 49q22 39 22 85q0 48 -20 82
q-25 43 -74 43zM25 343h290v-30h-290v30z" />
    <glyph glyph-name="ordmasculine" unicode="&#xba;" 
 />
    <glyph glyph-name="guillemotright" unicode="&#xbb;" horiz-adv-x="500" 
d="M283 409l120 -190l-126 -185q-8 10 -16 16t-21 10l112 158l-107 165q24 7 38 26zM140 409l120 -190l-126 -185q-8 10 -16 16t-21 10l112 158l-107 165q24 7 38 26z" />
    <glyph glyph-name="onequarter" unicode="&#xbc;" 
 />
    <glyph glyph-name="onehalf" unicode="&#xbd;" 
 />
    <glyph glyph-name="threequarters" unicode="&#xbe;" 
 />
    <glyph glyph-name="questiondown" unicode="&#xbf;" 
 />
    <glyph glyph-name="Agrave" unicode="&#xc0;" horiz-adv-x="648" 
d="M341 696l300 -699l-52 3l-53 -3q-36 103 -61 166q-16 40 -44 104h-254q-58 -145 -65 -165q-15 -40 -34 -105l-37 3l-35 -3l312 699h23zM416 309l-111 256l-109 -256h220z" />
    <glyph glyph-name="Aacute" unicode="&#xc1;" horiz-adv-x="593" 
d="M179 343v-302h100q74 0 120.5 46.5t46.5 115.5q0 54 -31 92q-34 42 -69.5 45.5t-56 3.5h-32.5q-22 0 -41.5 -0.5t-36.5 -0.5zM91 0v681h405q-1 -3 -2 -11.5t-1 -18.5l3 -30q-30 6 -49 8.5t-41 2.5l-120 2h-107v-252h92q145 0 206.5 -40.5t61.5 -133.5q0 -92 -61.5 -149.5
t-162.5 -57.5q-44 0 -100 -0.5t-124 -0.5z" />
    <glyph glyph-name="Acircumflex" unicode="&#xc2;" horiz-adv-x="593" 
d="M178 644v-263h44q43 0 71 3.5t57 16.5q77 34 77 121q0 67 -43 94.5t-127 27.5h-79zM178 342v-305h100q74 0 121 43t47 112q0 83 -58 119q-50 31 -149 31h-61zM90 0v681h201q115 0 169 -31t54 -107q0 -67 -44.5 -113.5t-113.5 -63.5q69 0 120 -35q63 -43 63 -122
q0 -107 -90 -169q-39 -27 -101 -35q-38 -5 -110 -5h-148z" />
    <glyph glyph-name="Atilde" unicode="&#xc3;" horiz-adv-x="481" 
d="M90 -2v683h355l-3 -30l3 -30q-30 6 -49 8.5t-41 2.5l-100 2h-77v-636l-44 2z" />
    <glyph glyph-name="Adieresis" unicode="&#xc4;" horiz-adv-x="667" 
d="M-3 48h43q27 58 93 209q70 159 109 251q55 130 71 173h48q27 -67 55 -134q2 -5 115 -275q63 -150 95 -224h43l-3 -40q0 -12 0.5 -24.5t2.5 -25.5h-9q-19 29 -58.5 35.5t-141.5 6.5h-244q-91 0 -105 -1q-75 -5 -107 -41h-7q2 9 2.5 27.5t0.5 22.5zM104 48h428l-211 524h-4
q-43 -95 -72 -162q-38 -88 -71 -172q-36 -93 -70 -190z" />
    <glyph glyph-name="Aring" unicode="&#xc5;" horiz-adv-x="500" 
d="M177 634v-251h155q19 0 50.5 2.5t38.5 2.5l-3 -26l3 -28q-18 0 -50 2.5t-39 2.5h-155v-292q32 0 104.5 2t76.5 2q28 0 41 1.5t51 7.5l-3 -30l3 -30h-361v681h355l-3 -30l3 -30q-30 6 -49 8.5t-41 2.5l-100 2h-77z" />
    <glyph glyph-name="AE" unicode="&#xc6;" horiz-adv-x="889" 
d="M445 678l44 3v-309q3 -1 7 -2q8 2 16.5 9t76.5 83q38 42 126 143l66 76l40 -3l39 3l-285 -304q30 -35 112 -138q49 -62 125 -160q30 -39 60 -77v-5l-55 3l-56 -3q-23 34 -75 104q-59 79 -118 159q-31 41 -62 83q0 2 -8 4q-5 -1 -9 -1v-349l-46 3l-42 -3v349q-4 0 -8 1
q-9 -1 -9 -4q-31 -41 -61 -82q-59 -80 -117 -160q-39 -52 -77 -104l-56 3l-55 -3v5q29 38 59 76q76 98 125 160q80 101 113 139l-285 304l39 -3l40 3q33 -38 66 -75q88 -101 126 -143q71 -79 79.5 -86t14.5 -8t6 3v309z" />
    <glyph glyph-name="Ccedilla" unicode="&#xc7;" horiz-adv-x="611" 
d="M82 576l-32 57q24 22 64 38q61 25 140 25q105 0 173 -41q75 -46 75 -127q0 -60 -41.5 -103.5t-117.5 -61.5q85 0 141 -48t56 -124q0 -101 -84 -155q-79 -51 -216 -51q-48 0 -102 15t-94 39q7 14 10 33.5t5 30.5l8 4q25 -35 76 -59t99 -24q96 0 145.5 42.5t49.5 122.5
q0 69 -46 110t-127 41l-90 -3q4 7 4 22q0 7 -4 21l78 -2q75 0 115 42q36 38 36 101q0 59 -40 98t-114 39q-60 0 -102 -21.5t-59 -57.5z" />
    <glyph glyph-name="Egrave" unicode="&#xc8;" horiz-adv-x="778" 
d="M90 -3v684q4 -1 16 -2t28 -1l44 3v-522h10l455 522h44v-684l-44 3l-44 -3v546h-10l-417 -485l-52 -61h-30z" />
    <glyph glyph-name="Eacute" unicode="&#xc9;" horiz-adv-x="778" 
d="M90 -3v684q5 -1 22 -2t22 -1q11 0 22 0.5t22 2.5v-522h10l455 522h44v-684l-44 3l-44 -3v546h-10l-469 -546h-30zM575 804l24 -40q-46 -27 -98.5 -42t-108.5 -15q-54 0 -107 15t-99 41l26 41q38 -25 83.5 -37t96.5 -12q104 0 183 49z" />
    <glyph glyph-name="Ecircumflex" unicode="&#xca;" horiz-adv-x="611" 
d="M581 681l-227 -218l-85 -86q121 -138 243 -275l81 -100v-5l-55 3l-56 -3q-16 23 -33.5 46.5t-35.5 44.5l-218 255q-5 4 -13 5q-4 -1 -4 -2v-349l-44 3l-44 -3v684l44 -3l44 3v-309q1 -4 9.5 -2t16.5 8.5t33 30.5q9 9 19 18l246 254l40 -3z" />
    <glyph glyph-name="Edieresis" unicode="&#xcb;" horiz-adv-x="648" 
d="M307 572q-71 -160 -130.5 -310t-97.5 -265l-37 3l-36 -3q18 34 83 179q52 117 126 289t88 216h47q32 -79 65 -158q51 -124 130 -310q75 -178 95 -216l-48 3l-49 -3l-227 575h-9z" />
    <glyph glyph-name="Igrave" unicode="&#xcc;" horiz-adv-x="889" 
d="M740 681h21q21 -199 26 -244q16 -147 26.5 -228.5t28.5 -211.5l-47 3l-47 -3q-9 100 -16.5 191t-17 180t-17.5 145q-61 -110 -106 -192q-52 -96 -87 -166q-38 -77 -69 -147h-11l-55 113q-36 75 -64 129.5t-69 132.5q-35 65 -69 130q-17 -143 -33 -289t-16 -227l-35 3
l-36 -3q21 130 55 369.5t41 314.5h26q52 -102 85 -167q40 -77 95 -177q60 -109 103 -180z" />
    <glyph glyph-name="Iacute" unicode="&#xcd;" horiz-adv-x="778" 
d="M599 394v287l44 -3l44 3v-684l-44 3l-44 -3v344q-49 0 -79 1q-120 4 -131 4q-48 0 -123 -2.5t-88 -2.5v-344l-44 3l-44 -3v684l44 -3l44 3v-287q50 0 125.5 -2.5t85.5 -2.5q48 0 78 1q120 4 132 4z" />
    <glyph glyph-name="Icircumflex" unicode="&#xce;" horiz-adv-x="833" 
d="M410 -15q-167 0 -267.5 96.5t-100.5 257.5t107 261q103 96 263 96q156 0 260 -81q119 -93 119 -261q0 -166 -106 -267.5t-275 -101.5zM693 346q0 68 -13 120.5t-50 99.5t-91.5 72t-116.5 25q-131 0 -206.5 -91.5t-75.5 -244.5q0 -147 80 -231q75 -78 193 -78
q141 0 219 122q61 95 61 206z" />
    <glyph glyph-name="Idieresis" unicode="&#xcf;" horiz-adv-x="778" 
d="M90 681h597v-684l-44 3l-44 -3v634l-210 3l-211 -3v-634l-44 3l-44 -3v684z" />
    <glyph glyph-name="Eth" unicode="&#xd0;" horiz-adv-x="574" 
d="M178 311v-314l-44 3l-44 -3v684h179q146 0 202 -36t56 -128q0 -88 -54 -137q-50 -45 -160 -67q-13 -3 -35 -4t-25 -1q-23 0 -41 1t-34 2zM178 642v-292q3 -1 27 -1q9 -1 19 -1h20h16q12 2 17 2q74 7 116 51t42 111q0 54 -26 87q-29 37 -65 40.5t-56.5 3.5h-32.5
q-22 0 -41 -0.5t-36 -0.5z" />
    <glyph glyph-name="Ntilde" unicode="&#xd1;" horiz-adv-x="667" 
d="M616 105l-5 -63q-44 -30 -102 -43.5t-119 -13.5q-164 0 -258 97t-94 261t109 261q104 92 268 92q53 0 108.5 -12t106.5 -34q-6 -15 -12 -37.5t-9 -39.5l-7 -1q-11 14 -39 34q-73 52 -152 52q-132 0 -206 -95q-69 -88 -69 -224q0 -143 74 -229t194 -86q54 0 111 21.5
t101 59.5z" />
    <glyph glyph-name="Ograve" unicode="&#xd2;" horiz-adv-x="556" 
d="M327 633v-636l-44 3l-44 -3v636q-78 0 -111 -2t-108 -10l3 30l-3 30h516l-3 -30l3 -30q-37 4 -93.5 8t-115.5 4z" />
    <glyph glyph-name="Oacute" unicode="&#xd3;" horiz-adv-x="648" 
d="M391 300q63 126 110 223q57 116 74 158l34 -3l36 3q-15 -25 -95 -179q-91 -175 -150 -293q-82 -164 -104 -212l-31 3l-45 -3q29 46 80 136q15 27 39 70q-38 55 -76 111q-82 119 -151 218q-86 124 -106 149l62 -3l54 3q56 -93 116 -182q74 -111 142 -199h11z" />
    <glyph glyph-name="Ocircumflex" unicode="&#xd4;" horiz-adv-x="889" 
d="M748 344q0 104 -67 175q-73 77 -193 77v-503q117 0 188.5 71.5t71.5 179.5zM140 344q0 -108 71.5 -179.5t188.5 -71.5v503q-121 0 -193 -74q-67 -69 -67 -178zM400 -3v59q-166 0 -264 84q-94 80 -94 204q0 127 93 204q98 81 265 81v52q6 -1 19 -2t25 -1q29 0 44 3v-52
q168 0 263 -79t95 -206q0 -125 -93 -204q-99 -84 -265 -84v-59q-15 3 -33 3h-11h-21.5t-22.5 -3z" />
    <glyph glyph-name="Otilde" unicode="&#xd5;" horiz-adv-x="611" 
d="M157 174l111 167l-115 189l-99 151l54 -3l54 3l51 -86l106 -182l168 268l37 -3l37 3l-17 -20l-153 -213l-49 -74l232 -377l-55 3l-55 -3q-80 157 -173 304q-93 -140 -181 -304l-37 3l-37 -3z" />
    <glyph glyph-name="Odieresis" unicode="&#xd6;" horiz-adv-x="778" 
d="M682 684v-636h56q-1 -8 -2 -22.5t-1 -17.5l3 -50h-9q-19 29 -58.5 35.5t-141.5 6.5h-144q-119 0 -180.5 -1t-114.5 -2v687l44 -3l44 3v-635h416v635q17 -3 44 -3z" />
    <glyph glyph-name="multiply" unicode="&#xd7;" horiz-adv-x="722" 
d="M543 394v287l44 -3l44 3v-684l-44 3l-44 -3v344q-50 -26 -106 -42q-73 -21 -143 -21q-82 0 -146 37q-76 44 -76 119v247l44 -3l44 3v-247q0 -55 59 -82q47 -22 115 -22q49 0 111 19.5t98 44.5z" />
    <glyph glyph-name="Oslash" unicode="&#xd8;" horiz-adv-x="889" 
d="M178 49h222v635l44 -3q29 0 44 3v-635h222v635l44 -3l44 3v-687q-75 0 -170.5 1t-183.5 2q-130 0 -208.5 -1t-145.5 -2v687l44 -3l44 3v-635z" />
    <glyph glyph-name="Ugrave" unicode="&#xd9;" horiz-adv-x="889" 
d="M796 684v-636h56q-1 -8 -2 -22.5t-1 -17.5l3 -50h-9q-19 28 -62 35t-138 7h-198q-127 0 -207 -1t-148 -2v687l44 -3l44 3v-635h221v635l44 -3l44 3v-635h221v635q17 -3 44 -3z" />
    <glyph glyph-name="Uacute" unicode="&#xda;" horiz-adv-x="574" 
d="M188 333v-292h99q74 7 116 51t42 111q0 54 -26 87q-29 37 -65 40.5t-56.5 3.5h-32.5q-22 0 -41 -0.5t-36 -0.5zM-7 681h195v-309h91q146 0 202 -36t56 -128q0 -88 -54 -137q-50 -45 -160 -67q-15 -3 -61.5 -4t-54.5 -1h-19h-16h-14h-11q-16 0 -27.5 0.5t-19.5 0.5v632
q-37 0 -53.5 -1.5t-53.5 -9.5l3 30z" />
    <glyph glyph-name="Ucircumflex" unicode="&#xdb;" horiz-adv-x="796" 
d="M178 333v-292h99q74 7 116 51t42 111q0 54 -26 87q-29 37 -65 40.5t-56.5 3.5h-32.5q-22 0 -41 -0.5t-36 -0.5zM178 681v-309h91q146 0 202 -36t56 -128q0 -90 -51 -138t-163 -66q-17 -3 -74.5 -4t-65.5 -1h-15h-13q-19 0 -32.5 0.5t-22.5 0.5v681l44 -3zM618 -3v684
l44 -3q29 0 44 3v-684l-44 3z" />
    <glyph glyph-name="Udieresis" unicode="&#xdc;" horiz-adv-x="574" 
d="M178 333v-292h99q74 7 116 51t42 111q0 54 -26 87q-29 37 -65 40.5t-56.5 3.5h-32.5q-22 0 -41 -0.5t-36 -0.5zM178 681v-309h91q146 0 202 -36t56 -128q0 -88 -54 -137q-50 -45 -160 -67q-15 -3 -61.5 -4t-54.5 -1h-19h-16h-14h-11q-16 0 -27.5 0.5t-19.5 0.5v681l44 -3
z" />
    <glyph glyph-name="Yacute" unicode="&#xdd;" horiz-adv-x="667" 
d="M252 383h277q-10 120 -78 194q-74 81 -195 81q-67 0 -129 -36q-42 -24 -62 -50l-7 1q-6 31 -9 42.5t-12 34.5q51 22 105 34t110 12q164 0 268 -92q109 -96 109 -261t-93.5 -261.5t-258.5 -96.5q-64 0 -119.5 13t-101.5 44l-5 63q45 -38 101 -59.5t111 -21.5
q119 0 193.5 86t74.5 229h-279q-19 0 -50.5 -2.5t-38.5 -2.5l3 28l-3 26q18 0 50 -2.5t39 -2.5z" />
    <glyph glyph-name="Thorn" unicode="&#xde;" horiz-adv-x="1056" 
d="M920 346q0 68 -13 120.5t-50 99.5t-91.5 72t-116.5 25q-131 0 -206.5 -91.5t-75.5 -244.5q0 -147 80 -231q75 -78 193 -78q141 0 219 122q61 95 61 206zM269 339q-3 1 -19 1t-25 1h-47v-344l-44 3l-44 -3v684l44 -3l44 3v-287q17 0 35 -0.5t38 -0.5q15 0 21 1
q18 138 120.5 220t246.5 82q156 0 260 -81q119 -93 119 -261q0 -166 -106 -267.5t-275 -101.5q-167 0 -267.5 96.5t-100.5 257.5z" />
    <glyph glyph-name="germandbls" unicode="&#xdf;" horiz-adv-x="611" 
d="M521 681v-684l-44 3l-44 -3v334h-38l-80 -94l-118 -153l-63 -87l-57 3l-58 -3l19 25l48 56l206 261q-86 15 -140 58q-65 52 -65 132q0 77 53.5 114.5t168.5 37.5h212zM433 369v275q-12 0 -45 1t-50 1q-31 0 -52 -3q-110 -18 -110 -126q0 -57 35 -94t93 -49q20 -4 37.5 -5
t40.5 -1h28.5t22.5 1z" />
    <glyph glyph-name="agrave" unicode="&#xe0;" horiz-adv-x="500" 
d="M413 313v-232v-29q3 -21 27 -21q13 0 29 4v-22q-5 -2 -14.5 -5.5t-21 -5.5t-27.5 -2q-29 0 -47.5 14t-22.5 47l-9 -9q-63 -63 -148 -63q-56 0 -95 33.5t-39 88.5q0 59 35 92.5t151 51.5q65 11 82 20q24 13 24 47q0 56 -30.5 86.5t-86.5 30.5q-48 0 -84 -26
q-28 -20 -35 -43h-11v56q39 27 78.5 41t82.5 14q162 0 162 -168zM333 100v146l-35 -8q-87 -17 -110 -27q-60 -27 -60 -86q0 -46 25.5 -69.5t72.5 -23.5q19 0 42 11.5t38 26.5q11 10 16 15q11 11 11 15z" />
    <glyph glyph-name="aacute" unicode="&#xe1;" horiz-adv-x="556" 
d="M111 425q33 28 79 42t99 14q103 0 167.5 -66.5t64.5 -177.5q0 -102 -63 -172q-69 -76 -187 -76q-103 0 -169.5 68.5t-66.5 182.5q0 274 90 357.5t367 83.5l-3 -31l3 -29q-28 4 -69.5 7t-83.5 3q-108 0 -168 -57t-60 -149zM288 450q-88 0 -130 -72q-35 -59 -35 -153
q0 -85 35 -140q41 -65 121 -65q79 0 121 81q33 63 33 141q0 82 -30 137q-39 71 -115 71z" />
    <glyph glyph-name="acircumflex" unicode="&#xe2;" horiz-adv-x="500" 
d="M157 232v-193h104q49 0 80.5 24.5t31.5 67.5q0 54 -28 77.5t-84 23.5h-104zM157 433v-164h94q46 0 71 21t25 64q0 41 -25 60t-67 19h-98zM77 0v472h192q77 0 118 -25q48 -29 48 -91q0 -41 -29 -68t-77 -33q65 -11 94 -32q41 -30 41 -92q0 -63 -53 -99q-48 -33 -120 -33z
" />
    <glyph glyph-name="atilde" unicode="&#xe3;" horiz-adv-x="407" 
d="M157 429v-432l-40 3l-40 -3v475h318l-2 -27l2 -27q-29 5 -84.5 8t-153.5 3z" />
    <glyph glyph-name="adieresis" unicode="&#xe4;" horiz-adv-x="500" 
d="M3 45h41q49 105 95 212q57 133 86 217l30 -3l31 3q25 -67 76.5 -194.5t97.5 -234.5h37l-2 -37v-19t2 -18h-7q-25 19 -60.5 24t-104.5 5h-150q-73 0 -105.5 -4t-58.5 -25h-8q2 5 2 17.5t1 19.5zM103 45h275q-20 62 -57.5 154.5t-76.5 181.5h-7q-1 0 -23 -54
q-40 -97 -53 -129q-31 -77 -58 -153z" />
    <glyph glyph-name="aring" unicode="&#xe5;" horiz-adv-x="500" 
d="M444 100l-1 -52q-39 -28 -82 -43.5t-90 -15.5q-106 0 -171 66t-65 180q0 109 58 175q62 71 171 71q89 0 143 -59q60 -65 60 -186l-203 3h-141q0 -90 41 -146q46 -62 132 -62q46 0 89 24q29 16 59 45zM123 276h266q0 77 -25 120q-31 54 -100 54q-67 0 -106 -55
q-35 -49 -35 -119z" />
    <glyph glyph-name="ae" unicode="&#xe6;" horiz-adv-x="722" 
d="M321 475l40 -3l40 3v-175q0 -10 0.5 -20t4.5 -13q5 -3 41 33l26 26l62 63l78 86l40 -3l39 3v-7q-69 -58 -120 -103q-61 -53 -100 -90l235 -273v-5l-49 3l-50 -3q-26 34 -64 79q-29 34 -127 146q-14 16 -15 16t-1 -37v-204l-40 3l-40 -3v204q1 27 1 32q0 4 -2 4t-15 -15
q-97 -111 -126 -145q-42 -50 -65 -80l-50 3l-49 -3v5l235 273q-61 58 -129 116q-46 38 -91 77v7l39 -3l40 3l78 -86l62 -63l36 -36q27 -26 31 -23t4.5 15t0.5 18v175z" />
    <glyph glyph-name="ccedilla" unicode="&#xe7;" horiz-adv-x="444" 
d="M370 359q0 -42 -28 -70t-73 -35q56 -7 90 -34q41 -33 41 -91q0 -67 -64 -106q-56 -34 -137 -34q-104 0 -157 32q6 18 12 36.5t9 36.5h8q18 -33 49.5 -53.5t78.5 -20.5q49 0 80 29t31 76q0 49 -30.5 77.5t-82.5 28.5l-69 -2v43l69 -2q39 0 62 25t23 64t-25 65t-65 26
q-42 0 -69 -20q-23 -17 -34 -46h-9q-9 37 -24 71q17 11 46 17q40 9 99 9q71 0 117 -29q52 -33 52 -93z" />
    <glyph glyph-name="egrave" unicode="&#xe8;" horiz-adv-x="556" 
d="M157 127q65 70 142 165t140 183h40v-478l-40 3l-40 -3v348q-67 -75 -98 -112q-46 -54 -97 -118.5t-87 -117.5h-40v478q5 -1 22 -2t18 -1h19l21 3v-348z" />
    <glyph glyph-name="eacute" unicode="&#xe9;" horiz-adv-x="556" 
d="M157 127q65 70 142 165t140 183h40v-478l-40 3l-40 -3v348q-67 -75 -98 -112q-46 -54 -97 -118.5t-87 -117.5h-40v478l40 -3l40 3v-348zM426 600l20 -33q-37 -22 -80.5 -34.5t-88.5 -12.5t-87 11.5t-81 34.5l20 34q64 -40 148 -40q85 0 149 40z" />
    <glyph glyph-name="ecircumflex" unicode="&#xea;" horiz-adv-x="500" 
d="M159 475v-175q-1 -14 -1 -20q0 -10 6 -13q11 -6 33 10q16 11 54 49l62 63l78 86l40 -3l39 3v-7q-69 -58 -120 -103q-61 -53 -100 -90l235 -273v-5l-49 3l-50 -3q-26 34 -64 79q-29 34 -127 146q-14 16 -23 16q-13 0 -13 -37v-204l-40 3l-40 -3v478l40 -3z" />
    <glyph glyph-name="edieresis" unicode="&#xeb;" horiz-adv-x="481" 
d="M155 212l-80 -216l-32 3l-32 -3q17 35 65 142q44 98 75 172q44 105 64 164l30 -3l31 3q32 -86 87 -222q61 -151 109 -256l-45 3l-44 -3q-46 152 -149 385q-13 -13 -42 -82z" />
    <glyph glyph-name="igrave" unicode="&#xec;" horiz-adv-x="667" 
d="M34 -3q15 64 35 212q6 48 33 265h27q52 -103 109 -205t100 -167q88 152 199 372h27q12 -105 21 -179.5t19.5 -161t16.5 -136.5l-44 3l-44 -3q0 96 -12 205q-3 29 -15 121q-92 -149 -180 -326h-23q-47 91 -88 166q-48 85 -94 160q-12 -86 -23 -174.5t-11 -151.5
q-13 2 -25 3z" />
    <glyph glyph-name="iacute" unicode="&#xed;" horiz-adv-x="556" 
d="M278 269q40 0 72 1.5t49 3.5v201l40 -3l40 3v-478l-40 3l-40 -3v232l-121 3l-121 -3v-232l-40 3l-40 -3v478l40 -3l40 3v-201q27 -2 66.5 -3.5t54.5 -1.5z" />
    <glyph glyph-name="icircumflex" unicode="&#xee;" horiz-adv-x="556" 
d="M35 240q0 106 72.5 173.5t181.5 67.5q103 0 167.5 -66.5t64.5 -177.5q0 -102 -63 -172q-69 -76 -187 -76q-103 0 -169.5 68.5t-66.5 182.5zM288 450q-88 0 -130 -72q-35 -59 -35 -153q0 -85 35 -140q41 -65 121 -65q79 0 121 81q33 63 33 141q0 82 -30 137
q-39 71 -115 71z" />
    <glyph glyph-name="idieresis" unicode="&#xef;" horiz-adv-x="556" 
d="M279 472l200 2v-477l-40 3l-40 -3v431h-242v-431l-40 3l-40 -3v477z" />
    <glyph glyph-name="eth" unicode="&#xf0;" horiz-adv-x="556" 
d="M146 -259l-40 3l-40 -3v734l40 -3l40 3v-95q25 44 48 64q46 39 123 39q93 0 149 -70q52 -65 52 -161q0 -121 -59.5 -192t-156.5 -71q-53 0 -90.5 24t-63.5 72zM146 223q0 -85 35 -136q39 -56 112 -56q70 0 106 65q31 57 31 152q0 84 -29 133q-35 60 -109 60
q-77 0 -116 -74q-30 -58 -30 -144z" />
    <glyph glyph-name="ntilde" unicode="&#xf1;" horiz-adv-x="481" 
d="M452 440l-23 -66h-8q-6 8 -13 17.5t-14 15.5q-17 19 -44 29.5t-55 10.5q-82 0 -129 -63q-43 -58 -43 -142q0 -96 50.5 -157.5t131.5 -61.5q41 0 75 18q26 14 63 47l6 -3l-5 -46q-68 -50 -153 -50q-122 0 -191 71q-65 67 -65 177q0 114 72 179t187 65q46 0 84 -9.5
t74 -31.5z" />
    <glyph glyph-name="ograve" unicode="&#xf2;" horiz-adv-x="444" 
d="M262 427v-430l-40 3l-40 -3v430q-70 0 -103 -2t-69 -7l3 27l-3 27h424l-2 -27l2 -27q-33 5 -67 7t-105 2z" />
    <glyph glyph-name="oacute" unicode="&#xf3;" horiz-adv-x="500" 
d="M228 1l-202 474l48 -3l47 3q27 -83 64.5 -176.5t84.5 -194.5q32 65 77 178q37 92 73 193l33 -3l32 3q-47 -105 -114 -252q-62 -137 -108 -242q-61 -139 -101 -240l-34 3l-34 -3z" />
    <glyph glyph-name="ocircumflex" unicode="&#xf4;" horiz-adv-x="778" 
d="M527 439q-32 0 -57.5 -15.5t-40.5 -43.5v-294q15 -25 42 -40t57 -15q67 0 98 63q27 54 27 151q0 82 -29 134q-33 60 -97 60zM349 380q-15 27 -40 43t-58 16q-63 0 -97 -60q-29 -52 -29 -134q0 -98 26 -150q32 -64 99 -64q31 0 57 14t42 41v294zM389 -256l-40 -3v301
q-38 -53 -108 -53q-96 0 -150 70t-54 193q0 94 51.5 161.5t137.5 67.5q46 0 76.5 -14t46.5 -37v248l40 -3l40 3v-248q16 23 46 37t77 14q86 0 139 -69q50 -65 50 -160q0 -123 -54 -193t-150 -70q-70 0 -108 53v-301z" />
    <glyph glyph-name="otilde" unicode="&#xf5;" horiz-adv-x="500" 
d="M211 233l-182 242l51 -3l51 3q21 -37 61.5 -95t67.5 -91l56 72l84 114l34 -3l35 3q-98 -105 -186 -215l187 -253v-10l-47 3l-47 -3q-22 37 -63 97q-44 65 -78 109q-33 -44 -70 -96q-50 -70 -74 -110l-30 3l-30 -3v10z" />
    <glyph glyph-name="odieresis" unicode="&#xf6;" horiz-adv-x="556" 
d="M358 0h-281v475l40 -3l40 3v-430l119 -2l123 2v430l40 -3l40 3v-430h51l-2 -37l2 -37h-7q-25 19 -60.5 24t-104.5 5z" />
    <glyph glyph-name="divide" unicode="&#xf7;" horiz-adv-x="519" 
d="M230 227q31 0 64 12.5t62 34.5v201l40 -3l40 3v-478l-40 3l-40 -3v232q-33 -21 -76 -34.5t-80 -13.5q-51 0 -92 21q-58 30 -58 89v184l40 -3l40 3v-181q0 -38 32 -54q25 -13 68 -13z" />
    <glyph glyph-name="oslash" unicode="&#xf8;" horiz-adv-x="722" 
d="M234 43l87 2v430q5 -1 17 -2t23 -1h19l21 3v-430l83 -2l81 2v430q5 -1 17 -2t23 -1q28 0 40 3v-475h-568v475q5 -1 22 -2t18 -1h19l21 3v-430z" />
    <glyph glyph-name="ugrave" unicode="&#xf9;" horiz-adv-x="722" 
d="M524 0h-447v475l40 -3l40 3v-430l81 -1l83 1v430q14 -3 40 -3l40 3v-430l83 -1l81 1v430l40 -3l40 3v-430h51l-2 -37l2 -37h-7q-25 19 -60.5 24t-104.5 5z" />
    <glyph glyph-name="uacute" unicode="&#xfa;" horiz-adv-x="463" 
d="M158 236v-194q24 0 41.5 -0.5t31.5 -1.5q49 0 84 25q39 28 39 73q0 51 -31.5 74.5t-78.5 23.5h-86zM-8 474q23 0 72 -0.5t94 -1.5v-196h118q73 0 116 -33q48 -37 48 -105q0 -58 -54.5 -98t-118.5 -40h-189v428h-50q-9 -1 -36 -8l3 26q0 18 -3 28z" />
    <glyph glyph-name="ucircumflex" unicode="&#xfb;" horiz-adv-x="648" 
d="M157 236v-194q12 -2 33 -2h40q49 0 84 25q39 28 39 73q0 51 -31.5 74.5t-78.5 23.5h-86zM571 475v-478l-40 3l-40 -3v478l40 -3zM77 0v475l41 -3l39 3v-199h118q71 0 115 -33q49 -37 49 -105q0 -58 -54.5 -98t-118.5 -40h-189z" />
    <glyph glyph-name="udieresis" unicode="&#xfc;" horiz-adv-x="463" 
d="M157 236v-194q24 0 42 -0.5t31 -1.5q49 0 84 25q39 28 39 73q0 51 -31.5 74.5t-78.5 23.5h-86zM77 0v475q15 -3 41 -3q25 0 39 3v-199h118q73 0 116 -33q48 -37 48 -105q0 -58 -54.5 -98t-118.5 -40h-189z" />
    <glyph glyph-name="yacute" unicode="&#xfd;" horiz-adv-x="481" 
d="M265 269h95q-8 78 -49 125q-46 53 -122 53q-26 0 -54 -10.5t-45 -29.5q-7 -6 -15 -17t-12 -16h-8l-23 66q36 22 74 31.5t84 9.5q114 0 184.5 -65t70.5 -179q0 -110 -63 -176q-68 -72 -189 -72q-85 0 -153 50l-5 46l6 3q37 -33 63 -47q34 -18 75 -18q80 0 131 58t51 151
h-96l-118 -3v45q15 -1 25 -1q69 -4 93 -4z" />
    <glyph glyph-name="thorn" unicode="&#xfe;" horiz-adv-x="741" 
d="M473 450q-88 0 -130 -72q-35 -59 -35 -153q0 -85 35 -140q41 -65 121 -65q79 0 121 81q33 63 33 141q0 82 -30 137q-39 71 -115 71zM456 -11q-101 0 -167 65q-69 68 -69 174l-63 1v-232l-40 3l-40 -3v478l40 -3l40 3v-201h65q12 93 82 150t170 57q103 0 167.5 -66.5
t64.5 -177.5q0 -102 -63 -172q-69 -76 -187 -76z" />
    <glyph glyph-name="ydieresis" unicode="&#xff;" horiz-adv-x="500" 
d="M423 472v-475l-39 3l-41 -3v199h-73l-141 -199l-46 3l-46 -3l150 203q-53 9 -86 33q-55 40 -55 115q0 54 39 89t94 35h244zM343 236v196l-117 1q-41 0 -69.5 -26.5t-28.5 -72.5q0 -60 59 -83q39 -15 111 -15h45z" />
    <glyph glyph-name="OE" unicode="&#x152;" 
 />
    <glyph glyph-name="oe" unicode="&#x153;" 
 />
    <glyph glyph-name="Scaron" unicode="&#x160;" 
 />
    <glyph glyph-name="scaron" unicode="&#x161;" 
 />
    <glyph glyph-name="Ydieresis" unicode="&#x178;" 
 />
    <glyph glyph-name="florin" unicode="&#x192;" 
 />
    <glyph glyph-name="circumflex" unicode="&#x2c6;" 
 />
    <glyph glyph-name="tilde" unicode="&#x2dc;" 
 />
    <glyph glyph-name="endash" unicode="&#x2013;" horiz-adv-x="500" 
d="M505 197h-505v48h505v-48z" />
    <glyph glyph-name="emdash" unicode="&#x2014;" 
d="M0 197v48h1000v-48h-1000z" />
    <glyph glyph-name="quoteleft" unicode="&#x2018;" horiz-adv-x="278" 
d="M226 689l-70 -222q-9 -27 -14 -36q-13 -21 -32 -21q-16 0 -28.5 10.5t-12.5 26.5q0 13 7 28q2 4 15 25l118 196z" />
    <glyph glyph-name="quoteright" unicode="&#x2019;" horiz-adv-x="278" 
d="M52 417l70 222q9 27 14 36q13 21 32 21q16 0 28.5 -10.5t12.5 -26.5q0 -13 -7 -28q-2 -4 -15 -25l-118 -196z" />
    <glyph glyph-name="quotesinglbase" unicode="&#x201a;" 
 />
    <glyph glyph-name="quotedblleft" unicode="&#x201c;" horiz-adv-x="444" 
d="M392 689l-70 -222q-9 -27 -14 -36q-13 -21 -32 -21q-16 0 -28.5 10.5t-12.5 26.5q0 13 7 28q2 4 15 25l118 196zM222 689l-70 -222q-9 -27 -14 -36q-13 -21 -32 -21q-16 0 -28.5 10.5t-12.5 26.5q0 13 7 28q2 4 15 25l118 196z" />
    <glyph glyph-name="quotedblright" unicode="&#x201d;" horiz-adv-x="444" 
d="M52 417l70 222q9 27 14 36q13 21 32 21q16 0 28.5 -10.5t12.5 -26.5q0 -13 -7 -28q-2 -4 -15 -25l-118 -196zM222 417l70 222q9 27 14 36q13 21 32 21q16 0 28.5 -10.5t12.5 -26.5q0 -13 -7 -28q-2 -4 -15 -25l-118 -196z" />
    <glyph glyph-name="quotedblbase" unicode="&#x201e;" 
 />
    <glyph glyph-name="dagger" unicode="&#x2020;" horiz-adv-x="500" 
d="M215 -3v398q-42 0 -104.5 -2.5t-69.5 -2.5l3 33l-3 32q40 0 100.5 -2.5t73.5 -2.5v231l35 -3l35 3v-231q41 0 66 1q100 4 108 4l-3 -32l3 -33q-36 0 -98.5 2.5t-75.5 2.5v-398l-35 3z" />
    <glyph glyph-name="daggerdbl" unicode="&#x2021;" 
 />
    <glyph glyph-name="bullet" unicode="&#x2022;" 
 />
    <glyph glyph-name="ellipsis" unicode="&#x2026;" 
d="M107 49q0 24 18 42t43 18q23 0 41 -18t18 -42t-17 -42t-42 -18t-43 17t-18 43zM440 49q0 24 18 42t43 18q23 0 41 -18t18 -42t-17 -42t-42 -18t-43 17t-18 43zM773 49q0 24 18 42t43 18q23 0 41 -18t18 -42t-17 -42t-42 -18t-43 17t-18 43z" />
    <glyph glyph-name="perthousand" unicode="&#x2030;" 
 />
    <glyph glyph-name="guilsinglleft" unicode="&#x2039;" 
 />
    <glyph glyph-name="guilsinglright" unicode="&#x203a;" 
 />
    <glyph glyph-name="trademark" unicode="&#x2122;" horiz-adv-x="950" 
d="M839 681h12q14 -131 25 -225.5t24 -180.5l-28 3l-28 -3q-7 88 -16 177t-15 129q-52 -93 -89 -164q-42 -80 -66 -135h-6l-33 67q-21 44 -59 116q-31 58 -61 116q-17 -152 -19 -169q-10 -94 -10 -137l-21 3l-21 -3q15 96 33.5 226t23.5 180h15q59 -116 99 -189t69 -122
q85 155 171 311zM232 653v-378l-26 3l-26 -3v378q-44 0 -78.5 -3t-51.5 -4v35h306v-35q-22 2 -61.5 4.5t-62.5 2.5z" />
    </font>
</defs>
</svg>
